Fibbers - In general, synthetic fibers are created by extruding fiber-forming materials through spinnerets, forming a fiber. These are called synthetic or artificial fibers. The word polymer comes from a Greek prefix "poly" which means "many" and suffix "mer" which means "single units". (Note: each single unit of a polymer is called a monomer).

 
FibbersFibbers - Fibbers Bar and Grill, Leaf River, Illinois. 1,429 likes · 238 talking about this · 926 were here. Bar and Restaurant

Fibbers is probably still Dubai’s best kept secret and have made a name as a quality pub serving great beer, with a diverse and good quality food menu. Their staff are friendly and welcoming and the relaxed service approach has added to the atmosphere. Contact: Fibber Magee’s Sheikh Zayed Road, behind Saeed Tower 1 Trade CentreTrade …Fibber Magee's - Manchester. 17 likes · 13 talking about this. Original, traditional, authentic Irish pub located in Sale Moor Village. Opening April 2024.Fribbels E7 Hero Library. This app shows top builds globally per hero. Values of atk/hp/def are randomly modified by up to 2% for anonymity. Definitions of each column can be found on the optimizer github page.. Build score (bs) is an experimental measure for stat efficiency that accounts for main stat gear score …Riley Fibbers. American RestaurantView the Menu of Fibbers Irish Bar Torreblanca in Fuengirola, Spain. Share it with friends or find your next meal. Traditional Irish BarProvided to YouTube by CDBabyDragon Lady · The Geraldine FibbersLost Somewhere Between the Earth and My Home℗ 2019 The Geraldine FibbersReleased on: 2019-04-...Fibbers Bar and Grill, Leaf River, Illinois. 1,429 likes · 238 talking about this · 926 were here. Bar and RestaurantFibber Magee’s is Dubai’s oldest and most iconic Irish pub. Put simply, we offer great beer, the best Guinness in town, homely pub grub, live entertainment and sports.Feb 5, 2020 · Fibbers Bar & Restaurant. Unclaimed. Review. Save. Share. 78 reviews #9 of 19 Restaurants in Saint Germain $$ - $$$ American Bar. 8679 Big Saint Germain Dr, Saint Germain, WI 54558-8931 +1 715-542-3810 Website. Closed now : See all hours. Fibbers Fast Food, Belize City, Belize. 1,359 likes · 4 talking about this · 4 were here. We sell the best Fry Chicken, Fry Fish, Chicken Wings, Hot Dog, French Fries, Burgers , Fingers in Grilled chicken breast quesadilla, served with salsa and sour cream. $12.49. Buffalo Chicken Quesadilla. Served with our grilled chicken mixed in buffalo sauce, mixed cheese, salsa, sour cream and your choice of seasoned fries or a side of mixed cheese with chopped lettuce and tomatoes. $13.99. Mar 13, 2024 · Earn 3x points with your sapphire card. Since 1978, Byrne’s Tavern has been the go-to place for bar food and a must for wing aficionados in Port Richmond. The beloved tavern only serves one style of wings: classic buffalo. They’re meaty, tender, and the housemade sauce has a kick without being dramatic. fibber: 1 n someone who tells lies Synonyms: fabricator , storyteller Type of: liar , prevaricator a person who has lied or who lies repeatedlyFibber Magees Thursday Sessions. 824 likes · 16 talking about this. Live Music every Thursday in the Upstairs Rock Bar of Fibber Magees.The Faux Fibbers. 289 likes. Absurdist Blues and Bonkers pop ! New album - 'Learn to Lie' - out now on Blang RecordsLooking for kind souls from top 30 ranked guilds to help contribute gw data for the tracker! Please contact fribbels on discord for detailsFibbers Bar and Grill, Leaf River, Illinois. 1,429 likes · 238 talking about this · 926 were here. Bar and RestaurantFibbers Bar & Restaurant. Unclaimed. Review. Save. Share. 78 reviews #9 of 19 Restaurants in Saint Germain ₹₹ - ₹₹₹ American Bar. 8679 Big Saint Germain Dr, Saint Germain, WI 54558-8931 +1 715-542-3810 Website. Closed now : See all hours.For the moment FIBBERS is no more - we are looking for a new... Fibbers: Live Music Venue, York. 30,163 likes · 1 talking about this · 47,778 were here. For the moment FIBBERS is no more - we are looking for a new home to move to in YORK and will be backDownstairs : 7PM Skyrocket Promotions - Nova Dream - Oshone - Annie and The Witness. more. 301 Moved Permanently. nginx/1.10.3 Fibbers Irish Bar Torreblanca, Fuengirola. 956 likes · 54 talking about this · 2,342 were here. Traditional Irish BarFribbels E7 Hero Library. This app shows top builds globally per hero. Values of atk/hp/def are randomly modified by up to 2% for anonymity. Definitions of each column can be found on the optimizer github page.. Build score (bs) is an experimental measure for stat efficiency that accounts for main stat gear score …Pete Doherty plays Fibbers Launched by Tim Hornsby on Stonebow in 1992, Fibbers quickly established itself as York’s top live music venue. It has played host to some of the biggest names in music, from The Killers to Coldplay, Laura Marling to Lee Scratch Perry. Aaron has owned Fibbers for ten years and says York needs places like it.Delighted that Fibbers has not changed since our last visit six years ago. A great traditional Irish pub with a fantastic atmosphere, plenty of live music, and a must see in Belfast. Read more. Written 11 November 2023. This review is the subjective opinion of a Tripadvisor member and not of Tripadvisor LLC.Fibbers Gigs, Dublin, Ireland. 1,632 likes · 5 talking about this. Bands , gigs and what's going on at FibbersDefinition of fibbers in the Definitions.net dictionary. Meaning of fibbers. What does fibbers mean? Information and translations of fibbers in the most comprehensive dictionary definitions resource on the web.Fib definition: . See examples of FIB used in a sentence.I find myself asking that way too much! Hello! I’m Mr Fibbers and I perform silly songs for kids ALL over the country. ‘Unlike any other comedian in Scotland…. Go see this guy!’. - Mark Millar, Netflix. ’An engagingly silly performer with funny songs you’ll get stuck in your head for days to come.’. - Comedy Club 4 Kids.Fibber Magees, the only truly authentic Irish owned and operated restaurant and pub in the east valley, has been in business since March 2003. Our mission statement is simple, "To be the highest quality authentic Irish Pub in the market, offering excellent standards of food, drink, guest service and hospitality". Fibber Magees was named "Best ...Avocado, cheese, fried egg, Irish or American bacon and much more! Choice of Beef, Turkey, or Veggie. Add ons at an additional charge. Starts at 3pm. $12.00. TACO TUESDAY. Chicken or fish tacos on corn torillas, …Flax Fibers. In-game sprite. Type. Crafting Material. Tooltip. This looks pretty strong. Flax Fibers are Items crafted from Flax. They have two uses, which are to craft the Wolfskin Armor set and to repair the Shipwreck's Sail.421. 20. 02/18/2024 07:54PM. Last Post by Daisy. A forum for sharing experiences regarding atrial fibrillation and other atrial tachy-arrhythmias.Flax Fibers. In-game sprite. Type. Crafting Material. Tooltip. This looks pretty strong. Flax Fibers are Items crafted from Flax. They have two uses, which are to craft the Wolfskin Armor set and to repair the Shipwreck's Sail.301 Moved Permanently. nginx/1.10.3Mr Fibbers. 643 likes · 3 talking about this · 1 was here. Kid’s musical comedy from the biggest kid of all! Check out my YouTube channel...Fibbers Irish Bar Torreblanca, Fuengirola. 969 likes · 175 talking about this · 2,393 were here. Traditional Irish Bar.Fibbers Bar & Restaurant is an American (Traditional) cuisine restaurant located at 8679 Big Saint Germain Dr, Saint Germain, Wisconsin, 54558. We offer a range of dining options including lunch, dinner, and dessert with comfortable seating arrangements. Our restaurant is known for its fast service and welcoming outdoor …Fibbers Bar and Grill, Leaf River, Illinois. 1,429 likes · 238 talking about this · 926 were here. Bar and RestaurantButch, an Album by The Geraldine Fibbers. Released 1 July 1997 on Virgin (catalog no. 7243 8 44419 2 0; CD). Genres: Alt-Country, Alternative Rock, Folk Rock. Rated #334 in the best albums of 1997. Featured peformers: The Geraldine Fibbers (producer), Steve Fisk (producer), John Goodmanson (recording engineer), S. Husky …ONE MILLION LIVE MUSIC FANS CAN’T BE WRONG. One of the country’s longest running, best loved and most established live music venues featuring the best …fibber: 1 n someone who tells lies Synonyms: fabricator , storyteller Type of: liar , prevaricator a person who has lied or who lies repeatedlyThe Beaux Fibbers. 215 likes · 1 talking about this. Musician/bandHappy Hour at Fibbers. I visited yesterday at 4 pm just as Happy Hour began (4 - 7) and had a great meal of fish and chips with a free pint thrown in. The happy hour price for Stella was £3.66, which is cheaper than at home. I was no sign of trouble and the staff were fine.Fibber McGee and Molly 1949 : Free Download, Borrow, and Streaming : Internet Archive. Webamp. Volume 90%. 1 Weather Stripping 29:17. 2 Sleigh Ride 29:15. 3 Money In A Shoebox 28:50. 4 Johnsons Wax Quiz Commercial 07:36. 5 The Laundromat 30:32. 6 Good Listener McGee 29:38.Let Riley Fibbers Pub and Grill make your event a success with our exceptional on-premise catering services. Contact us today to discuss your event and reserve your date. We look forward to serving you and your guests! East Islip. 148 Carleton Ave . East Islip, New York. 631-581-3300. HOURS. Sun - Thu 10:00 am - 2:00 am.Even though there were Scots in Fibbers, wishing to watch Scotland v France. Our table arrived to watch this game, and then England v Wales. 4 hour stay, 5 persons, maybe 800 to 1000 bill, plus tip for waitress. Whatever, if you wish to watch any Sport in Fibbers on a Saturday, with commentary, Gordon says "No" So.Looking for kind souls from top 30 ranked guilds to help contribute gw data for the tracker! Please contact fribbels on discord for detailsLet Riley Fibbers Pub and Grill make your event a success with our exceptional on-premise catering services. Contact us today to discuss your event and reserve your date. We look forward to serving you and your guests! East Islip. 148 Carleton Ave . East Islip, New York. 631-581-3300. HOURS. Sun - Thu 10:00 am - 2:00 am.Let Riley Fibbers Pub and Grill make your event a success with our exceptional on-premise catering services. Contact us today to discuss your event and reserve your date. We look forward to serving you and your guests! East Islip. 148 Carleton Ave . East Islip, New York. 631-581-3300. HOURS. Sun - Thu 10:00 am - 2:00 am.Feb 5, 2020 · Fibbers Bar & Restaurant. Unclaimed. Review. Save. Share. 78 reviews #9 of 19 Restaurants in Saint Germain $$ - $$$ American Bar. 8679 Big Saint Germain Dr, Saint Germain, WI 54558-8931 +1 715-542-3810 Website. Closed now : See all hours. The Purkinje fibers ( English: / pɜːrˈkɪndʒi / pur-KIN-jee; [1] Czech: [ˈpurkɪɲɛ] ⓘ; Purkinje tissue or subendocardial branches) are located in the inner ventricular walls of the heart, [2] just beneath the endocardium in a space called the subendocardium. The Purkinje fibers are specialized conducting fibers composed of electrically ...Fibbers Bar & Restaurant. Unclaimed. Review. Save. Share. 78 reviews #9 of 19 Restaurants in Saint Germain ₹₹ - ₹₹₹ American Bar. 8679 Big Saint Germain Dr, Saint Germain, WI 54558-8931 +1 715-542-3810 Website. Closed now : See all hours.Mar 13, 2024 · Earn 3x points with your sapphire card. Since 1978, Byrne’s Tavern has been the go-to place for bar food and a must for wing aficionados in Port Richmond. The beloved tavern only serves one style of wings: classic buffalo. They’re meaty, tender, and the housemade sauce has a kick without being dramatic. Fibbers Irish Bar Torreblanca, Fuengirola. 969 likes · 175 talking about this · 2,393 were here. Traditional Irish Bar.301 Moved Permanently. nginx/1.10.3Cons. Younique is known for its mascaras and this fiber mascara is one of its most popular formulas. We haven't tested this specific formula in our Lab but it claims to add volume, length and lift ...Fibbers are plural of fibber, meaning a person who tells lies. Find 37 synonyms, antonyms, and related articles for fibbers on Merriam-Webster Thesaurus.24 photos. Being at this bar, taste nicely cooked burgers, fried fish and chicken. It's time to degustate good beer. The homely atmosphere of Fibbers Bar And Grill allows guests to relax after a hard working day. The positive aspect of this place is that the staff is pleasant. If you want to enjoy enjoyable service, you should visit this spot.Fibers is an international, peer-reviewed, open access journal on fiber science, published monthly online by MDPI. Open Access — free for readers, with article processing charges (APC) paid by authors or their institutions. High Visibility: indexed within Scopus, ESCI (Web of Science), PubAg, CAPlus / SciFinder, Inspec, and …Filename C:\Geraldine Fibbers - Lost Somewhere Between the Earth and My Home [Virgin Records America]\06 - House Is Falling.wav Pre-gap length 0:00:00.53 Peak level 89.1 % Extraction speed 7.3 X Track quality 100.0 % Test CRC 975100F8 Copy CRC 975100F8 Accurately ripped (confidence 13) [BAACF349] (AR v2)Flax Fibers. In-game sprite. Type. Crafting Material. Tooltip. This looks pretty strong. Flax Fibers are Items crafted from Flax. They have two uses, which are to craft the Wolfskin Armor set and to repair the Shipwreck's Sail.Perhaps the most surprising touch is the inclusion of a cover of Can 's Krautrock classic "Yoo Doo Right," but much like fellow Californians Thin White Rope, the Fibbers work their own magic on the song, with Bozulich commandingly leading everyone through a fierce take. Little on the album is quiet, but there are songs where taking a …Happy Hour at Fibbers. I visited yesterday at 4 pm just as Happy Hour began (4 - 7) and had a great meal of fish and chips with a free pint thrown in. The happy hour price for Stella was £3.66, which is cheaper than at home. I was no sign of trouble and the staff were fine.Happy Hour at Fibbers. I visited yesterday at 4 pm just as Happy Hour began (4 - 7) and had a great meal of fish and chips with a free pint thrown in. The happy hour price for Stella was £3.66, which is cheaper than at home. I was no sign of trouble and the staff were fine.Looking for kind souls from top 30 ranked guilds to help contribute gw data for the tracker! Please contact fribbels on discord for detailsAs the title says, I'd appreciate it if someone could share the paste codes for Fibbers with the Redundant prefix and splits into nine bullets upon ricochet. 12-09-2012 #2. KarmaTheAlligator. View Profile Private Message View Forum Posts Dual-Keyboard Member Join Date Oct 2012 Gender Posts 299 Reputation 10 Thanks 72 My Mood. Slag: ...FIBBERS BAR & GRILLE, Upper Darby, Pennsylvania. 1,300 likes · 4,852 were here. HAPPY HOUR 4:30-7:00PMSynonyms for fibber include storyteller, prevaricator, fabricator, fabulist, falsifier, liar, deceiver, perjurer, dissembler and distorter. Find more similar words at ... Persistent Afib. by Dini. 421. 20. 02/18/2024 07:54PM. Last Post by Daisy. A forum for sharing experiences regarding atrial fibrillation and other atrial tachy-arrhythmias. There has always been an appreciation of the role of Purkinje fibers in the fast conduction of the normal cardiac impulse. Here, we briefly update our knowledge of this important set of cardiac cells. We discuss the anatomy of a Purkinje fiber strand, the importance of longitudinal conduction within a strand, circus movement within a strand, …Fibber Magees, Belfast. 10,632 likes · 86 talking about this · 39,492 were here. The Home of Traditional Irish Music in Belfast. Live music 7 nights a weekThis article will discuss the anatomy and function of commissural pathways. White matter fiber bundles that bridge the midline and connect identical cortical structures in the opposite hemispheres of the brain. Corpus callosum, anterior commissure, posterior commissure, habenular commissure, and the hippocampal …The Purkinje fibers ( English: / pɜːrˈkɪndʒi / pur-KIN-jee; [1] Czech: [ˈpurkɪɲɛ] ⓘ; Purkinje tissue or subendocardial branches) are located in the inner ventricular walls of the heart, [2] just beneath the endocardium in a space called the subendocardium. The Purkinje fibers are specialized conducting fibers composed of electrically ...GENERAL HEALTH FORUM. A forum for discussing other health-related topics and information of general interest not directly related to AFIB. RSS. 1,233. 5,763. March 12, 2024 04:09PM. Creating a profile: Anyone can read posts, but you need to register by creating a profile in order to reply to a post or to make a new post.The Veggie Wrap. $15.50. Marinated tomatoes, onions, mushrooms, red onion, roasted red peppers and mozzarella drizzled with a balsamic reduction. Visit Riley Fibbers in East Islip, NY for a delightful dining experience. Located at 148 Carleton Ave, our restaurant offers a warm ambiance and a delectable menu.Natural fibers can either be plant-based, animal-based, or mineral-based. Plant-based fiber types include seed fibers like cotton, bast fibers like hemp, core fibers like jute, leaf fibers like abaca, fruit fibers like coconut, stalk fibers like wheat, cane, grass, and reed fibers like bamboo. Commonly used animal-based fibers for fashion ...Join Fibbers. Get all the info first and enjoy membership benefits such as q‑jumps and guests lists Fibber Magees, the only truly authentic Irish owned and operated restaurant and pub in the east valley, has been in business since March 2003. Our mission statement is simple, "To be the highest quality authentic Irish Pub in the market, offering excellent standards of food, drink, guest service and hospitality". Fibber Magees was named "Best ... Fibber Magees, the only truly authentic Irish owned and operated restaurant and pub in the east valley, has been in business since March 2003. Our mission statement is simple, "To be the highest quality authentic Irish Pub in the market, offering excellent standards of food, drink, guest service and hospitality". Fibber Magees was named "Best ...FIBBERS showcased three very different artists who proved once more that York is home to some of the best up-and-coming performers. The Nicoles' vocalist Ben Leftwich proved an able crowd-pleaser ...Mcwilliams and son, Ski heavenly, Camp jewell, David's disney vacation club rentals, Capitol supply, Trampoline park tampa hillsborough, Ragsdale heating and air, Mike and the moonpies, Renton kia, Blacksmith depot, Antelope canyon ken's tours, Black salon near me, Claim 52, Winthrop arms hotel and restaurant

Welcome To Fibber’s Bar & Restaurantand St. Germain Lodge & Resort. Pick a Season… relax and enjoy a unique northwoods vacation experience on beautiful Big St Germain Lake. Whether …. Toledo country club

Fibbersmomentum millcreek

Welcome To Fibber Magee's Dubai's Best Kept Secret. Fibber Magee’s is Dubai’s oldest and most iconic Irish pub. Put simply, we offer great beer, the best Guinness in town, …Fibbers Irish Bar Torreblanca, Fuengirola. 969 likes · 175 talking about this · 2,393 were here. Traditional Irish Bar.Fibbers, Fuengirola: See 11 unbiased reviews of Fibbers, rated 4 of 5 on Tripadvisor and ranked #518 of 1,099 restaurants in Fuengirola.Jan 23, 2024 · Get address, phone number, hours, reviews, photos and more for Fibbers Sports Bar & Grille | 327 S 69th St, Upper Darby, PA 19082, USA on usarestaurants.info 24 photos. Being at this bar, taste nicely cooked burgers, fried fish and chicken. It's time to degustate good beer. The homely atmosphere of Fibbers Bar And Grill allows guests to relax after a hard working day. The positive aspect of this place is that the staff is pleasant. If you want to enjoy enjoyable service, you should visit this spot. The Veggie Wrap. $15.50. Marinated tomatoes, onions, mushrooms, red onion, roasted red peppers and mozzarella drizzled with a balsamic reduction. Visit Riley Fibbers in East Islip, NY for a delightful dining experience. Located at 148 Carleton Ave, our restaurant offers a warm ambiance and a delectable menu. Fibbers are plural of fibber, meaning a person who tells lies. Find 37 synonyms, antonyms, and related articles for fibbers on Merriam-Webster Thesaurus. Welcome To Fibber Magee's Dubai's Best Kept Secret. Fibber Magee’s is Dubai’s oldest and most iconic Irish pub. Put simply, we offer great beer, the best Guinness in town, …Robinsons Bars | Belfast's Longest Established Bar. Established since 1895, Robinson’s bar is one of Belfast longest running bars. There is something to suit everyone with five venues under one roof – Saloon, Fibbers, Bistro, Pool Loft and Lounge.Fibber Magee's Dumaguete, Dumaguete City. 1,904 likes · 334 talking about this · 826 were here. Fibber Magee’s Irish Bar & Restaurant open in the heart...Please note that Journal of Natural Fibers converted to a full Open Access journal from Volume 20 (2023). Previous volumes will continue to provide access through a Pay to Read model. The Journal of Natural Fibers presents new achievements in basic research and the development of multi-purpose applications that further the economical … Your hosts Rob and Kaye Manthei welcome you for dinner and a fish tale or two. Nightly specials, including Tuesday & Friday Fish Fry and Sunday all-you-can-eat chicken! In general, synthetic fibers are created by extruding fiber-forming materials through spinnerets, forming a fiber. These are called synthetic or artificial fibers. The word polymer comes from a Greek prefix "poly" which means "many" and suffix "mer" which means "single units". (Note: each single unit of a polymer is called a monomer).ONE MILLION LIVE MUSIC FANS CAN’T BE WRONG. One of the country’s longest running, best loved and most established live music venues featuring the best …I find myself asking that way too much! Hello! I’m Mr Fibbers and I perform silly songs for kids ALL over the country. ‘Unlike any other comedian in Scotland…. Go see this guy!’. - Mark Millar, Netflix. ’An engagingly silly performer with funny songs you’ll get stuck in your head for days to come.’. - Comedy Club 4 Kids.Fibber McGee's closetA complete and total mess. Fibber McGee was the titular character in The Fibber McGee and Molly radio show that aired in the mid-20th ce...Tortilla chips with chili, jalapeños, tomatoes, smothered in Fibbers famous cheese sauce and topped with sour cream sauce and topped with sour cream. $12.50. Philly Cheese Steak Egg Rolls. Thinly sliced beef, minced onions, and a cheese blend wrapped in a crispy fried egg roll served with a side of chipotle BBQ sauce.Geraldine Fibbers emerged in 1994 when Carla Bozulich, frontwoman for a confrontational industrial/punk outfit called Ethyl Meatplow, teamed with members of the punk band Glue to play country music. It was intended to be an entertaining side project, but quickly evolved into something more. The group attracted a local following in and around ... Specialties: We are an authentic Irish Owned and operated Irish Pub located in Chandler Arizona. Wwe offer a full menu of food including, traditional and modern Irish dishes and American fare and of course our world famous Bread and Butter Pudding. We have a full bar offering Imperial 20oz pints of Guinness and one of the Best Irish Whiskey and Scotch selections in Arizona. We have Live music ... A fibber is an informal term for a person who tells fibs, or lies. The web page provides the definition, pronunciation, examples, and translations of fibber in different languages. …Fibber McGee's closetA complete and total mess. Fibber McGee was the titular character in The Fibber McGee and Molly radio show that aired in the mid-20th ce...Fibbers Irish Breakfast. BESTSELLER. AED83. Bacon and Egg Bap. AED39. Bacon Avo Toasty. AED49. Cheese and Pork Bacon on Toast. AED43. Fruit Bowl. AED49. Related to Fibber Magee's, Trade Centre Area. Fibbers are plural of fibber, meaning a person who tells lies. Find 37 synonyms, antonyms, and related articles for fibbers on Merriam-Webster Thesaurus. The Purkinje fibers ( English: / pɜːrˈkɪndʒi / pur-KIN-jee; [1] Czech: [ˈpurkɪɲɛ] ⓘ; Purkinje tissue or subendocardial branches) are located in the inner ventricular walls of the heart, [2] just beneath the endocardium in a space called the subendocardium. The Purkinje fibers are specialized conducting fibers composed of electrically ... Fibber's is a casual dining and bar located on Big St Germain Lake in Wisconsin. Enjoy a variety of dishes, drinks, and activities at this resort and marina with a 400' beachfront and fishing guide service. Fibber Magees, Belfast. 10,632 likes · 86 talking about this · 39,492 were here. The Home of Traditional Irish Music in Belfast. Live music 7 nights a weekWelcome To Fibber Magee's Dubai's Best Kept Secret. Fibber Magee’s is Dubai’s oldest and most iconic Irish pub. Put simply, we offer great beer, the best Guinness in town, …Fibber Magee’s is Dubai’s oldest and most iconic Irish pub. Put simply, we offer great beer, the best Guinness in town, homely pub grub, live entertainment and sports.Fibber's Bar and Restaurant | Saint Germain WI. Fibber's Bar and Restaurant, Saint Germain, Wisconsin. 6,496 likes · 298 talking about this · 7,650 were here.WELCOME TO FITZY'S. Toowoomba's iconic hotel - family owned and operated for over 22 years. Take a journey through the many rooms and areas of Fitzy's Toowoomba - each one a different style and. personality, and along with it, a choice of tastes, vibe and liquid refreshment. The ultimate patchwork of lounges, bars, … There are 2 ways to place an order on Uber Eats: on the app or online using the Uber Eats website. After you’ve looked over the Fibbers Sports Bar and Grille menu, simply choose the items you’d like to order and add them to your cart. Next, you’ll be able to review, place, and track your order. Summary. The three types of muscle fiber are slow oxidative (SO), fast oxidative (FO) and fast glycolytic (FG). SO fibers use aerobic metabolism to produce low power contractions over long periods and are slow to fatigue. FO fibers use aerobic metabolism to produce ATP but produce higher tension contractions than SO fibers. GENERAL HEALTH FORUM. A forum for discussing other health-related topics and information of general interest not directly related to AFIB. RSS. 1,233. 5,763. March 12, 2024 04:09PM. Creating a profile: Anyone can read posts, but you need to register by creating a profile in order to reply to a post or to make a new post. Filename C:\Geraldine Fibbers - Lost Somewhere Between the Earth and My Home [Virgin Records America]\06 - House Is Falling.wav Pre-gap length 0:00:00.53 Peak level 89.1 % Extraction speed 7.3 X Track quality 100.0 % Test CRC 975100F8 Copy CRC 975100F8 Accurately ripped (confidence 13) [BAACF349] (AR v2)Geraldine Fibbers emerged in 1994 when Carla Bozulich, frontwoman for a confrontational industrial/punk outfit called Ethyl Meatplow, teamed with members of the punk band Glue to play country music. It was intended to be an entertaining side project, but quickly evolved into something more. The group attracted a local following in and around ... 8679 Big St Germain Dr. Saint Germain, WI 54558. (715) 542-3810. Website. Neighborhood: Saint Germain. Bookmark Update Menus Edit Info Read Reviews Write Review. Fibbers Bar & Restaurant. Unclaimed. Review. Save. Share. 78 reviews #9 of 19 Restaurants in Saint Germain $$ - $$$ American Bar. 8679 Big Saint Germain Dr, Saint Germain, WI …Fribbels E7 Hero Library. This app shows top builds globally per hero. Values of atk/hp/def are randomly modified by up to 2% for anonymity. Definitions of each column can be found on the optimizer github page.. Build score (bs) is an experimental measure for stat efficiency that accounts for main stat gear score … Mon 3pm - 2am. Tue - Sun 11am - 2am. 156 S Murphy Ave, Sunnyvale, CA 94086. (408) 749-8373. Established in 1994, we're located on the historic Murphy Avenue in downtown Sunnyvale and welcome everyone in to enjoy our traditional Irish Pub. Featuring craft beers from dozens of brewers like Russian River Brewing Co, Altamont Beer Works and more. Latest reviews, photos and 👍🏾ratings for Fibbers Bar And Grill at 110 N Main St in Leaf River - view the menu, ⏰hours, ☎️phone number, ☝address and map. Fibbers Bar And Grill. Bars. Hours: 110 N Main St, Leaf River (815) 738-2277. Menu. Customers' Favorites. Chicken Wings ...Fibber McGee's Bar and Grill is an independently owned neighborhood pub, where people get together, eat, relax and have a good time. Friendly staff and a talented kitchen crew proudly serve classic American fare - best know for our wings and burgers - and a wide selection of cocktails, craft beers a The meaning of FIB is a trivial or childish lie. How to use fib in a sentence. Synonym Discussion of Fib. Fibbers Bar & Restaurant. Unclaimed. Review. Save. Share. 78 reviews #9 of 19 Restaurants in Saint Germain $$ - $$$ American Bar. 8679 Big Saint Germain Dr, Saint Germain, WI …Latest reviews, photos and 👍🏾ratings for Fibbers Bar And Grill at 110 N Main St in Leaf River - view the menu, ⏰hours, ☎️phone number, ☝address and map. Fibbers Bar And Grill. Bars. Hours: 110 N Main St, Leaf River (815) 738-2277. Menu. Customers' Favorites. Chicken Wings ...St. Patricks Day @ Fibbers with live music from It Might Get Loud - Classic/Alternative/Indie rock cover band delivering great tunes like they should be done! plus support 9pm - … Fiber. Fiber is a type of carbohydrate that the body can’t digest. Though most carbohydrates are broken down into sugar molecules called glucose, fiber cannot be broken down into sugar molecules, and instead it passes through the body undigested. Fiber helps regulate the body’s use of sugars, helping to keep hunger and blood sugar in check. Filename C:\Geraldine Fibbers - Lost Somewhere Between the Earth and My Home [Virgin Records America]\06 - House Is Falling.wav Pre-gap length 0:00:00.53 Peak level 89.1 % Extraction speed 7.3 X Track quality 100.0 % Test CRC 975100F8 Copy CRC 975100F8 Accurately ripped (confidence 13) [BAACF349] (AR v2) 6.2 miles away from Riley Fibbers of East Islip Meri L. said "I came here on a Friday (12/21/18) night with some coworkers to celebrate the end of 2018. We all arrived at different times, but were all there by about 530. Fibbers, in the Toft Green area of the city, closed in 2020 and the site has since been left abandoned. Musical brothers George and Jimmy Craig, of the band One Night Only, want to revamp it into ...Fibber McGee's Bar and Grill is an independently owned neighborhood pub, where people get together, eat, relax and have a good time. Friendly staff and a talented kitchen crew proudly serve classic American fare - best know for our wings and burgers - and a wide selection of cocktails, craft beers aFibber Magee’s is Dubai’s oldest and most iconic Irish pub. Put simply, we offer great beer, the best Guinness in town, homely pub grub, live entertainment and sports.WELCOME TO FITZY'S. Toowoomba's iconic hotel - family owned and operated for over 22 years. Take a journey through the many rooms and areas of Fitzy's Toowoomba - each one a different style and. personality, and along with it, a choice of tastes, vibe and liquid refreshment. The ultimate patchwork of lounges, bars, …Welcome To Fibber Magee's Dubai's Best Kept Secret. Fibber Magee’s is Dubai’s oldest and most iconic Irish pub. Put simply, we offer great beer, the best Guinness in town, …Fibbers is a superb Irish bar that offer's an excellent well priced drink's range and was one of two Fibber Irish bar's we went to on our seven day holiday in Torreblanca. This superb Irish bar has a brilliant interior with nice decor and furnishings and lots of good seating area's throughout the whole bars interior …Pete Doherty plays Fibbers Launched by Tim Hornsby on Stonebow in 1992, Fibbers quickly established itself as York’s top live music venue. It has played host to some of the biggest names in music, from The Killers to Coldplay, Laura Marling to Lee Scratch Perry. Aaron has owned Fibbers for ten years and says York needs places like it.Welcome To Fibber’s Bar & Restaurantand St. Germain Lodge & Resort. Pick a Season… relax and enjoy a unique northwoods vacation experience on beautiful Big St Germain Lake. Whether …Fibber Magee's - "Dubai's Best Kept Secret", ‎دبي‎. 8,143 likes · 119 talking about this · 15,652 were here. Dubai's oldest and most iconic Irish pub.FIBBERS showcased three very different artists who proved once more that York is home to some of the best up-and-coming performers. The Nicoles' vocalist Ben Leftwich proved an able crowd-pleaser ... Definition of fibber noun in Oxford Advanced Learner's Dictionary. Meaning, pronunciation, picture, example sentences, grammar, usage notes, synonyms and more. The meaning of FIB is a trivial or childish lie. How to use fib in a sentence. Synonym Discussion of Fib. Fibbers are plural of fibber, meaning a person who tells lies. Find 37 synonyms, antonyms, and related articles for fibbers on Merriam-Webster Thesaurus. Fibbers is a superb Irish bar that offer's an excellent well priced drink's range and was one of two Fibber Irish bar's we went to on our seven day holiday in Torreblanca. This superb Irish bar has a brilliant interior with nice decor and furnishings and lots of good seating area's throughout the whole bars interior …Purkinje Fibers : Anatomy, Location & Function. Purkinje fibers are clearly identified on the inner ventricular walls of the heart, just underneath the endocardium in an area named the subendocardium. The Purkinje fibers are functional conducting fibers, that are comprised of electrically excitable cells and are larger than the normal ...Fibber's is a casual dining and bar located on Big St Germain Lake in Wisconsin. Enjoy a variety of dishes, drinks, and activities at this resort and marina with a 400' beachfront …. Copa health, Michigan ors, City of ozark mo, Montana fire pits, Queen casino, Carmines market, Total chaos fabrication, N dot, Heritage prairie farm.